American Pie 4: Band Camp (2005) 720p WEB-DL x264 DD5.1 [Dual Audio][Hindi+English]

American Pie 4: Band Camp (2005) 720p WEB-DL x264 DD5.1 [Dual Audio][Hindi+English]





Format                                   : Matroska
Format version                           : Version 4
File size                                : 876 MiB
Duration                                 : 1 h 31 min
Overall bit rate                         : 1 337 kb/s
Encoded date                             : UTC 2019-02-06 19:35:31
Writing application                      : mkvmerge v29.0.0 ('Like It Or Not') 32-bit
Writing library                          : libebml v1.3.6 + libmatroska v1.4.9

Video
ID                                       : 1
Format                                   : AVC
Format/Info                              : Advanced Video Codec
Format profile                           : High@L4
Format settings                          : CABAC / 5 Ref Frames
Format settings, CABAC                   : Yes
Format settings, RefFrames               : 5 frames
Codec ID                                 : V_MPEG4/ISO/AVC
Duration                                 : 1 h 31 min
Bit rate                                 : 1 068 kb/s
Width                                    : 1 280 pixels
Height                                   : 720 pixels
Display aspect ratio                     : 16:9
Frame rate mode                          : Constant
Frame rate                               : 23.976 (24000/1001) FPS
Color space                              : YUV
Chroma subsampling                       : 4:2:0
Bit depth                                : 8 bits
Scan type                                : Progressive
Bits/(Pixel*Frame)                       : 0.048
Stream size                              : 695 MiB (79%)
Writing library                          : x264 core 148 r2694 3b70645
Encoding settings                        : cabac=1 / ref=5 / deblock=1:-2:-2 / analyse=0x3:0x133 / me=umh / subme=10 / psy=1 / psy_rd=1.00:0.15 / mixed_ref=1 / me_range=24 / chroma_me=1 / trellis=2 / 8x8dct=1 / cqm=0 / deadzone=21,11 / fast_pskip=1 / chroma_qp_offset=-3 / threads=6 / lookahead_threads=1 / sliced_threads=0 / nr=0 / decimate=1 / interlaced=0 / bluray_compat=0 / constrained_intra=0 / bframes=3 / b_pyramid=2 / b_adapt=2 / b_bias=0 / direct=3 / weightb=1 / open_gop=0 / weightp=2 / keyint=250 / keyint_min=23 / scenecut=40 / intra_refresh=0 / rc_lookahead=60 / rc=2pass / mbtree=1 / bitrate=1068 / ratetol=1.0 / qcomp=0.65 / qpmin=0 / qpmax=69 / qpstep=4 / cplxblur=20.0 / qblur=0.5 / vbv_maxrate=20000 / vbv_bufsize=17500 / nal_hrd=none / filler=0 / ip_ratio=1.40 / aq=1:0.80
Language                                 : English
Default                                  : Yes
Forced                                   : No

Audio #1
ID                                       : 2
Format                                   : AAC LC
Format/Info                              : Advanced Audio Codec Low Complexity
Codec ID                                 : A_AAC-2
Duration                                 : 1 h 31 min
Bit rate                                 : 192 kb/s
Channel(s)                               : 6 channels
Channel layout                           : C L R Ls Rs LFE
Sampling rate                            : 48.0 kHz
Frame rate                               : 46.875 FPS (1024 SPF)
Compression mode                         : Lossy
Delay relative to video                  : 500 ms
Stream size                              : 125 MiB (14%)
Language                                 : Hindi
Default                                  : Yes
Forced                                   : Yes

Audio #2
ID                                       : 3
Format                                   : AAC LC
Format/Info                              : Advanced Audio Codec Low Complexity
Codec ID                                 : A_AAC-2
Duration                                 : 1 h 31 min
Bit rate                                 : 83.4 kb/s
Channel(s)                               : 2 channels
Channel layout                           : L R
Sampling rate                            : 48.0 kHz
Frame rate                               : 46.875 FPS (1024 SPF)
Compression mode                         : Lossy
Delay relative to video                  : 9 ms
Stream size                              : 54.3 MiB (6%)
Language                                 : English
Default                                  : No
Forced                                   : No

Text
ID                                       : 4
Format                                   : UTF-8
Codec ID                                 : S_TEXT/UTF8
Codec ID/Info                            : UTF-8 Plain Text
Duration                                 : 1 h 30 min
Bit rate                                 : 61 b/s
Count of elements                        : 1074
Stream size                              : 41.0 KiB (0%)
Language                                 : English
Default                                  : Yes
Forced                                   : No

Menu
00:00:00.000                             : en:Misconduct (Main Titles)
00:07:06.000                             : en:Perfect Punishment
00:11:09.000                             : en:The M.A.C.R.O.
00:19:47.000                             : en:Striptease
00:24:50.000                             : en:Stifler Vision
00:32:14.000                             : en:Wake Up Call
00:38:08.000                             : en:Battle Royale
00:41:19.000                             : en:Sensitive Stomach
00:48:29.000                             : en:Night Vision
00:52:13.000                             : en:Overstimulated Times
00:56:02.000                             : en:Fierce Competition
01:00:49.000                             : en:Love Music
01:05:38.000                             : en:Off the Bandwagon
01:07:44.000                             : en:"Bandeez Gone Wild"
01:13:06.000                             : en:Gag Reflex
01:17:20.000                             : en:For Elyse
01:22:30.000                             : en:Piper at the Gates
01:27:29.000                             : en:End Titles









SINGLE DIRECT FAST LINKS


http://www.heroupload.com/0514ee8b996f0579/American.Pie.Presents.Band.Camp.2005.720p.WEB-DL.5.1.Hindi-Eng.x264-KMHD.mkv


Buy Premium From My Links & Support Me
шаблоны для dle 11.2