Widows (2018) 720p BluRay x264 DD5.1 [Dual Audio][Hindi+English] - Ranvijay

Widows (2018) 720p BluRay x264 DD5.1 [Dual Audio][Hindi+English] - Ranvijay




Format : Matroska
Format version : Version 4 / Version 2
File size : 1.64 GiB
Duration : 2 h 9 min
Overall bit rate : 1 816 kb/s
Movie name : Widows (2018) 720p BluRay x264 Dual Audio [Hindi DD5.1 - English DD2.0] - MSUBS ~ Ranvijay

Video
ID : 1
Format : AVC
Format/Info : Advanced Video Codec
Duration : 2 h 9 min
Bit rate : 1 234 kb/s
Width : 1 280 pixels
Height : 536 pixels
Display aspect ratio : 2.40:1
Frame rate mode : Constant
Frame rate : 23.976 (24000/1001) FPS
Color space : YUV
Chroma subsampling : 4:2:0
Bit depth : 8 bits
Scan type : Progressive
Bits/(Pixel*Frame) : 0.075
Stream size : 1.12 GiB (68%)
Title : ~Ranvijay~

Audio #1
ID : 2
Format : AC-3
Format/Info : Audio Coding 3
Codec ID : A_AC3
Duration : 2 h 9 min
Bit rate mode : Constant
Bit rate : 448 kb/s
Channel(s) : 6 channels
Channel positions : Front: L C R, Side: L R, LFE
Sampling rate : 48.0 kHz
Frame rate : 31.250 FPS (1536 SPF)
Bit depth : 16 bits
Compression mode : Lossy
Stream size : 415 MiB (25%)
Title : ~Ranvijay~
Language : Hindi
Service kind : Complete Main
Default : Yes
Forced : Yes

Audio #2
ID : 3
Format : AAC
Format/Info : Advanced Audio Codec
Format profile : HE-AAC / LC
Format settings : Explicit
Codec ID : A_AAC-2
Duration : 2 h 9 min
Bit rate : 100.0 kb/s
Channel(s) : 2 channels
Channel positions : Front: L R
Sampling rate : 48.0 kHz / 24.0 kHz
Frame rate : 23.438 FPS (1024 SPF)
Compression mode : Lossy
Delay relative to video : 31 ms
Stream size : 92.7 MiB (6%)
Title : ~Ranvijay~
Language : English
Default : No
Forced : No

Text #1
ID : 4
Format : PGS
Muxing mode : zlib
Codec ID : S_HDMV/PGS
Codec ID/Info : Picture based subtitle format used on BDs/HD-DVDs
Duration : 2 h 5 min
Bit rate : 46.6 kb/s
Count of elements : 4212
Stream size : 42.0 MiB (2%)
Title : ~Ranvijay~
Language : English
Default : Yes
Forced : Yes

Text #2
ID : 5
Format : PGS
Muxing mode : zlib
Codec ID : S_HDMV/PGS
Codec ID/Info : Picture based subtitle format used on BDs/HD-DVDs
Duration : 2 h 8 min
Bit rate : 51.8 kb/s
Count of elements : 3250
Stream size : 47.5 MiB (3%)
Title : ~Ranvijay~
Language : Hindi
Default : No
Forced : No 











SINGLE DIRECT FAST LINKS

http://www.heroupload.com/ca87dddd2066b1e5/Widows.2018.720p.BluRay.x264.Dual.Audio.Hindi.DD5.1+English.DD2.0.MSUBS-Ranvijay.mkv



Buy Premium From My Links & Support Me
шаблоны для dle 11.2