Varathan (2018) Malayalam - 720p - WEB-HD - AVC - AAC-TMV

Varathan (2018) Malayalam - 720p - WEB-HD - AVC - AAC-TMV





Format                      : MPEG-4
Format profile              : Base Media
Codec ID                    : isom (isom/iso2/avc1/mp41)
File size                   : 1.77 GiB
Duration                    : 2 h 3 min
Overall bit rate mode       : Constant
Overall bit rate            : 2 057 kb/s
Writing application         : Lavf58.20.100

Video
ID                          : 1
Format                      : AVC
Format/Info                 : Advanced Video Codec
Format profile              : Main@L3.1
Format settings, CABAC      : Yes
Format settings, RefFrames  : 1 frame
Format settings, GOP        : M=1, N=100
Codec ID                    : avc1
Codec ID/Info               : Advanced Video Coding
Duration                    : 2 h 3 min
Bit rate mode               : Constant
Bit rate                    : 2 000 kb/s
Width                       : 1 280 pixels
Height                      : 720 pixels
Display aspect ratio        : 16:9
Frame rate mode             : Constant
Frame rate                  : 25.000 FPS
Color space                 : YUV
Chroma subsampling          : 4:2:0
Bit depth                   : 8 bits
Scan type                   : Progressive
Bits/(Pixel*Frame)          : 0.087
Stream size                 : 1.71 GiB (97%)
Language                    : Malayalam

Audio
ID                          : 2
Format                      : AAC
Format/Info                 : Advanced Audio Codec
Format profile              : LC
Codec ID                    : 40
Duration                    : 2 h 3 min
Bit rate mode               : Constant
Bit rate                    : 61.4 kb/s
Channel(s)                  : 2 channels
Channel positions           : Front: L R
Sampling rate               : 48.0 kHz
Frame rate                  : 46.875 FPS (1024 SPF)
Compression mode            : Lossy
Stream size                 : 54.0 MiB (3%)
Language                    : Malayalam
Default                     : Yes
Alternate group             : 1






SINGLE DIRECT FAST LINKS
http://www.heroupload.us/9869c43341aedfde/Varathan.2018.Malayalam.Proper.True.HQ.WEB-HD.720p.AVC.AAC-TMV.mp4



http://filefloater.com/Vir/Varathan.2018.Malayalam.Proper.True.HQ.WEB-HD.720p.AVC.AAC-TMV.mp4




Buy Premium From My Links & Support Me
шаблоны для dle 11.2