Carry on Jatta 2 (2018) 1080p - WEB-DL - AVC - DD5.1 - Esubs-TT Exclusive

Carry on Jatta 2 (2018) 1080p - WEB-DL - AVC - DD5.1 - Esubs-TT Exclusive






Format                                   : Matroska
Format version                           : Version 4
File size                                : 9.83 GiB
Duration                                 : 2 h 27 min
Overall bit rate                         : 9 521 kb/s
Movie name                               : Encoded By: mkvCinemas.live
Encoded date                             : UTC 2019-01-11 14:24:51
Writing application                      : mkvmerge v29.0.0 ('Like It Or Not') 32-bit
Writing library                          : libebml v1.3.6 + libmatroska v1.4.9

Video
ID                                       : 1
Format                                   : AVC
Format/Info                              : Advanced Video Codec
Format profile                           : High@L4
Format settings                          : CABAC / 4 Ref Frames
Format settings, CABAC                   : Yes
Format settings, RefFrames               : 4 frames
Codec ID                                 : V_MPEG4/ISO/AVC
Duration                                 : 2 h 27 min
Bit rate                                 : 8 879 kb/s
Width                                    : 1 920 pixels
Height                                   : 800 pixels
Display aspect ratio                     : 2.40:1
Frame rate mode                          : Constant
Frame rate                               : 24.000 FPS
Color space                              : YUV
Chroma subsampling                       : 4:2:0
Bit depth                                : 8 bits
Scan type                                : Progressive
Bits/(Pixel*Frame)                       : 0.241
Stream size                              : 9.17 GiB (93%)
Default                                  : Yes
Forced                                   : No
Color range                              : Limited
Color primaries                          : BT.709
Transfer characteristics                 : BT.709
Matrix coefficients                      : BT.709

Audio
ID                                       : 2
Format                                   : E-AC-3
Format/Info                              : Enhanced AC-3
Commercial name                          : Dolby Digital Plus
Codec ID                                 : A_EAC3
Duration                                 : 2 h 27 min
Bit rate mode                            : Constant
Bit rate                                 : 640 kb/s
Channel(s)                               : 6 channels
Channel layout                           : L R C LFE Ls Rs
Sampling rate                            : 48.0 kHz
Frame rate                               : 31.250 FPS (1536 SPF)
Compression mode                         : Lossy
Stream size                              : 677 MiB (7%)
Language                                 : Panjabi
Service kind                             : Complete Main
Default                                  : Yes
Forced                                   : No

Text
ID                                       : 3
Format                                   : UTF-8
Codec ID                                 : S_TEXT/UTF8
Codec ID/Info                            : UTF-8 Plain Text
Duration                                 : 2 h 26 min
Bit rate                                 : 107 b/s
Count of elements                        : 3090
Stream size                              : 115 KiB (0%)
Language                                 : English
Default                                  : No
Forced                                   : No





SINGLE DIRECT FAST LINKS

http://www.heroupload.com/9830957695d2c767/Carry.On.Jatta.2.2018.Untouched.WebDL.Punjabi.1080p.AVC.DDP5.1.ESub-TT.mkv


1GB LINKS



http://www.heroupload.com/3dda3dbf23bd7c43/Carry.On.Jatta.2.2018.Untouched.WebDL.Punjabi.1080p.AVC.DDP5.1.ESub-TT.part01.rar
http://www.heroupload.com/75035fa0afaa35c5/Carry.On.Jatta.2.2018.Untouched.WebDL.Punjabi.1080p.AVC.DDP5.1.ESub-TT.part02.rar
http://www.heroupload.com/ccd0f372c807cd69/Carry.On.Jatta.2.2018.Untouched.WebDL.Punjabi.1080p.AVC.DDP5.1.ESub-TT.part03.rar
http://www.heroupload.com/5e63e5b532dd15e3/Carry.On.Jatta.2.2018.Untouched.WebDL.Punjabi.1080p.AVC.DDP5.1.ESub-TT.part04.rar
http://www.heroupload.com/4415f7478d030500/Carry.On.Jatta.2.2018.Untouched.WebDL.Punjabi.1080p.AVC.DDP5.1.ESub-TT.part05.rar
http://www.heroupload.com/3f38594c17bdce28/Carry.On.Jatta.2.2018.Untouched.WebDL.Punjabi.1080p.AVC.DDP5.1.ESub-TT.part06.rar
http://www.heroupload.com/23f556e5fcae140b/Carry.On.Jatta.2.2018.Untouched.WebDL.Punjabi.1080p.AVC.DDP5.1.ESub-TT.part07.rar
http://www.heroupload.com/87571dd93db4b112/Carry.On.Jatta.2.2018.Untouched.WebDL.Punjabi.1080p.AVC.DDP5.1.ESub-TT.part08.rar
http://www.heroupload.com/c201032cfbfdca82/Carry.On.Jatta.2.2018.Untouched.WebDL.Punjabi.1080p.AVC.DDP5.1.ESub-TT.part09.rar
http://www.heroupload.com/2819132de7758dfe/Carry.On.Jatta.2.2018.Untouched.WebDL.Punjabi.1080p.AVC.DDP5.1.ESub-TT.part10.rar





Buy Premium From My Links & Support Me
шаблоны для dle 11.2