Kuthoosi (2019) Tamil Ultra HD 4K - Untouched - AVC - Dolby ® 5.1 - Esubs-MTR

Kuthoosi (2019) Tamil Ultra HD 4K - Untouched - AVC - Dolby ® 5.1 - Esubs-MTR





ormat                                   : MPEG-4
Codec ID                                 : M4V  (isom/avc1/mp42)
File size                                : 5.05 GiB
Duration                                 : 2 h 7 min
Overall bit rate mode                    : Variable
Overall bit rate                         : 5 647 kb/s
Encoded date                             : UTC 2019-02-06 08:09:13
Tagged date                              : UTC 2019-02-06 08:09:13

Video
ID                                       : 1
Format                                   : AVC
Format/Info                              : Advanced Video Codec
Format profile                           : Main@L5.1
Format settings                          : CABAC / 3 Ref Frames
Format settings, CABAC                   : Yes
Format settings, RefFrames               : 3 frames
Format settings, GOP                     : M=3, N=90
Codec ID                                 : avc1
Codec ID/Info                            : Advanced Video Coding
Duration                                 : 2 h 7 min
Bit rate mode                            : Constant
Bit rate                                 : 5 000 kb/s
Maximum bit rate                         : 13.1 Mb/s
Width                                    : 3 840 pixels
Height                                   : 2 160 pixels
Display aspect ratio                     : 16:9
Frame rate mode                          : Constant
Frame rate                               : 24.000 FPS
Color space                              : YUV
Chroma subsampling                       : 4:2:0
Bit depth                                : 8 bits
Scan type                                : Progressive
Bits/(Pixel*Frame)                       : 0.025
Stream size                              : 4.47 GiB (89%)
Encoded date                             : UTC 2019-02-06 08:09:13
Tagged date                              : UTC 2019-02-06 08:09:13
Color range                              : Limited
Color primaries                          : BT.709
Transfer characteristics                 : BT.709
Matrix coefficients                      : BT.709
Codec configuration box                  : avcC

Audio #1
ID                                       : 2
Format                                   : AAC LC
Format/Info                              : Advanced Audio Codec Low Complexity
Codec ID                                 : mp4a-40-2
Duration                                 : 2 h 7 min
Bit rate mode                            : Variable
Bit rate                                 : 128 kb/s
Maximum bit rate                         : 133 kb/s
Channel(s)                               : 2 channels
Channel layout                           : L R
Sampling rate                            : 48.0 kHz
Frame rate                               : 46.875 FPS (1024 SPF)
Compression mode                         : Lossy
Stream size                              : 115 MiB (2%)
Language                                 : English
Encoded date                             : UTC 2019-02-06 08:09:13
Tagged date                              : UTC 2019-02-06 08:09:13

Audio #2
ID                                       : 3
Format                                   : AC-3
Format/Info                              : Audio Coding 3
Commercial name                          : Dolby Digital
Codec ID                                 : ac-3
Duration                                 : 2 h 7 min
Bit rate mode                            : Constant
Bit rate                                 : 512 kb/s
Channel(s)                               : 6 channels
Channel layout                           : L R C LFE Ls Rs
Sampling rate                            : 48.0 kHz
Frame rate                               : 31.250 FPS (1536 SPF)
Bit depth                                : 16 bits
Compression mode                         : Lossy
Stream size                              : 469 MiB (9%)
Language                                 : English
Service kind                             : Complete Main
Encoded date                             : UTC 2019-02-06 08:09:13
Tagged date                              : UTC 2019-02-06 08:09:13






SINGLE DIRECT FAST LINKS

http://www.heroupload.com/d1b5617e53f3e565/Kuthoosi.2019.4K.Untouched.UHD.MP4.ESubs.Tamil-MTR.mp4


1GB LINKS


http://www.heroupload.com/7e9c9739e4f8c943/Kuthoosi.2019.4K.Untouched.UHD.MP4.ESubs.Tamil-MTR.part1.rar
http://www.heroupload.com/59a17ee899b5cdc8/Kuthoosi.2019.4K.Untouched.UHD.MP4.ESubs.Tamil-MTR.part2.rar
http://www.heroupload.com/24f80fb36bca10b3/Kuthoosi.2019.4K.Untouched.UHD.MP4.ESubs.Tamil-MTR.part3.rar
http://www.heroupload.com/2899bb1cab7c8463/Kuthoosi.2019.4K.Untouched.UHD.MP4.ESubs.Tamil-MTR.part4.rar
http://www.heroupload.com/c261d67013ff57d8/Kuthoosi.2019.4K.Untouched.UHD.MP4.ESubs.Tamil-MTR.part5.rar
http://www.heroupload.com/6f70607e770f851b/Kuthoosi.2019.4K.Untouched.UHD.MP4.ESubs.Tamil-MTR.part6.rar
http://www.heroupload.com/e399d3415a65a807/Kuthoosi.2019.4K.Untouched.UHD.MP4.ESubs.Tamil-MTR.srt



Buy Premium From My Links & Support Me
шаблоны для dle 11.2